+ ShareSpark.net »  :::: Dubbed Zone (Dubbed English in Hindi) » English Movies Dubbed in Hindi
|- The Hitmans Bodyguard (2017) 720p BluRay [ Hindi DD 2.0 256Kbps DTH - English ] x264 Esub


10% SBI and 10% Discount

The Hitmans Bodyguard (2017) 720p BluRay [ Hindi DD 2.0 256Kbps DTH - English ] x264 Esub

0 Members and 1 Guest are viewing this topic.

November 11, 2018, 01:15:48 PM
  • Admin
  • Legend Member
  • ****
  • Topic Author
  • Thank You: 2438
  • Reputation: 643
  • Activity:
    25.2%
  • Country: in
  • Posts: 3687
  • Topics: 2259
  • Join Date: Dec 2013
  • ShareSpark Member
   

The Hitmans Bodyguard (2017)
720p BluRay
[ Hindi DD 2.0 256Kbps DTH - English ]
x264 Esub
   
   
   
   
Poster


   



   



   
   
   
   
   
   
   
   
   
   



   






   

 General

Format                      : Matroska
Format version              : Version 4 / Version 2
File size                   : 2.86 GiB
Duration                    : 1 h 58 min
Overall bit rate            : 3 457 kb/s
Encoded date                : UTC 2018-11-11 07:07:50
Writing application         : mkvmerge v20.0.0 ('I Am The Sun') 64-bit
Writing library             : libebml v1.3.5 + libmatroska v1.4.8



Video


ID                          : 1
Format                      : AVC
Format/Info                 : Advanced Video Codec
Format profile              : [email protected]
Format settings             : CABAC / 9 Ref Frames
Format settings, CABAC      : Yes
Format settings, ReFrames   : 9 frames
Codec ID                    : V_MPEG4/ISO/AVC
Duration                    : 1 h 58 min
Bit rate                    : 2 560 kb/s
Width                       : 1 280 pixels
Height                      : 720 pixels
Display aspect ratio        : 16:9
Frame rate mode             : Constant
Frame rate                  : 23.976 (24000/1001) FPS
Color space                 : YUV
Chroma subsampling          : 4:2:0
Bit depth                   : 8 bits
Scan type                   : Progressive
Bits/(Pixel*Frame)          : 0.116
Stream size                 : 2.11 GiB (74%)
Writing library             : x264 core 148 r2643 5c65704
Encoding settings           : cabac=1 / ref=9 / deblock=1:-2:-2 / analyse=0x3:0x113 / me=umh / subme=9 / psy=1 / psy_rd=1.00:0.25 / mixed_ref=1 / me_range=32 / chroma_me=1 / trellis=2 / 8x8dct=1 / cqm=0 / deadzone=21,11 / fast_pskip=1 / chroma_qp_offset=-4 / threads=12 / lookahead_threads=1 / sliced_threads=0 / nr=0 / decimate=1 / interlaced=0 / bluray_compat=0 / constrained_intra=0 / bframes=5 / b_pyramid=2 / b_adapt=2 / b_bias=0 / direct=3 / weightb=1 / open_gop=0 / weightp=2 / keyint=240 / keyint_min=24 / scenecut=40 / intra_refresh=0 / rc_lookahead=40 / rc=2pass / mbtree=1 / bitrate=2560 / ratetol=1.0 / qcomp=0.60 / qpmin=0 / qpmax=69 / qpstep=4 / cplxblur=20.0 / qblur=0.5 / vbv_maxrate=20000 / vbv_bufsize=20000 / nal_hrd=none / filler=0 / ip_ratio=1.40 / aq=1:1.00
Language                    : English
Default                     : Yes
Forced                      : No
Color range                 : Limited
Color primaries             : BT.709
Transfer characteristics    : BT.709
Matrix coefficients         : BT.709


Audio #1


ID                          : 2
Format                      : AAC
Format/Info                 : Advanced Audio Codec
Format profile              : LC
Codec ID                    : A_AAC-2
Duration                    : 1 h 58 min
Bit rate                    : 256 kb/s
Channel(s)                  : 2 channels
Channel positions           : Front: L R
Sampling rate               : 44.1 kHz
Frame rate                  : 43.066 FPS (1024 SPF)
Compression mode            : Lossy
Delay relative to video     : 82 ms
Stream size                 : 217 MiB (7%)
Title                       : Hindi
Language                    : Hindi
Default                     : Yes
Forced                      : Yes



Audio #2


ID                          : 3
Format                      : AC-3
Format/Info                 : Audio Coding 3
Codec ID                    : A_AC3
Duration                    : 1 h 58 min
Bit rate mode               : Constant
Bit rate                    : 448 kb/s
Channel(s)                  : 6 channels
Channel positions           : Front: L C R, Side: L R, LFE
Sampling rate               : 48.0 kHz
Frame rate                  : 31.250 FPS (1536 SPF)
Bit depth                   : 16 bits
Compression mode            : Lossy
Delay relative to video     : 30 ms
Stream size                 : 379 MiB (13%)
Title                       : Surround
Language                    : English
Service kind                : Complete Main
Default                     : No
Forced                      : No


Audio #3


ID                          : 4
Format                      : AC-3
Format/Info                 : Audio Coding 3
Codec ID                    : A_AC3
Duration                    : 1 h 58 min
Bit rate mode               : Constant
Bit rate                    : 192 kb/s
Channel(s)                  : 2 channels
Channel positions           : Front: L R
Sampling rate               : 48.0 kHz
Frame rate                  : 31.250 FPS (1536 SPF)
Bit depth                   : 16 bits
Compression mode            : Lossy
Delay relative to video     : 64 ms
Stream size                 : 162 MiB (6%)
Title                       : Commentary
Language                    : English
Service kind                : Complete Main
Default                     : No
Forced                      : No


Text


ID                          : 5
Format                      : UTF-8
Codec ID                    : S_TEXT/UTF8
Codec ID/Info               : UTF-8 Plain Text
Duration                    : 1 h 57 min
Bit rate                    : 77 b/s
Count of elements           : 1954
Stream size                 : 67.3 KiB (0%)
Language                    : English
Default                     : Yes
Forced                      : No


Menu


00:00:00.000                : :Chapter 1
00:07:22.943                : :Chapter 2
00:13:53.892                : :Chapter 3
00:20:23.323                : :Chapter 4
00:27:20.156                : :Chapter 5
00:32:53.531                : :Chapter 6
00:38:25.445                : :Chapter 7
00:46:52.994                : :Chapter 8
00:56:39.372                : :Chapter 9
01:00:23.387                : :Chapter 10
01:09:11.415                : :Chapter 11
01:16:34.399                : :Chapter 12
01:21:11.259                : :Chapter 13
01:27:45.111                : :Chapter 14
01:35:06.760                : :Chapter 15
01:40:37.757                : :Chapter 16





All Credit Goes To Original Uploader







      


















      
      

Share this topic on FacebookShare this topic on GoogleShare this topic on MySpaceShare this topic on TwitterShare this topic on Yahoo

« Last Edit: November 11, 2018, 01:51:12 PM by тнє ωαll 81317 »



Thanks given by:


November 11, 2018, 01:51:51 PM
Reply #1
  • ***************
  • Team SSX
  • Legend Member
  • ***
  • Thank You: 1793
  • Reputation: 550
  • Activity:
    100%
  • Country: pk
  • Posts: 1878
  • Topics: 1169
  • Join Date: Mar 2015
  • =$ Success Never Ends $=

Tags:
 

Related Topics





Back to top